Zone Telechargement ws

Dernières actualités du site :

17/01 - Adoration New!
03/12 - NCIS : Nouvelle-Orléans Saison 5 Episode 15 New!
17/01 - Adoration New!

Catégories

Liens rapides

Filtrer par
Genres/Epoques/Pays/Notes

Année de sortie :

Action
Animation
Arts Martiaux
Aventure
Biopic
Comédie dramatique
Comédie musicale
Comédie
Divers
Documentaire
Drame
Epouvante-horreur
Espionnage
Famille
Fantastique
Guerre
Historique
Musical
Péplum
Policier
Romance
Science fiction
Thriller
Western

Membre

Annonces

Remarque


La qualité audio/vidéo de ce film est très variable, consultez cette page (cliquez ici) pour avoir les détails des différentes qualités ...
Deadwood : le film
Qualité HDLight 720p FRENCH

Deadwood : le film



Origine du film :U.S.A.
Réalisateur(s) :Daniel Minahan
Acteur(s) :Ian McShane, Timothy Olyphant, Molly Parker
Genre :Drame,Western,
Titre Original :Deadwood: The Movie
Note spectateur : - 3.3/5



Dans des temps bouleversés, d'anciennes rivalités sont ravivées. Des alliances sont mises à rude épreuve et d'anciennes blessures sont rouvertes. Suite et conclusion de la série Deadwood (2004-2006). NFO Show/hide text General Unique ID : 193922010030564735894773182915700588780 (0x91E40545FFF4EA4E428373250D5400EC) Complete name : Deadwood.The.Movie.2019.FRENCH.720p.BluRay.Light.x264.AC3-ACOOL.WwW.Zone-Telechargement.Net.mkv Format : Matroska Format version : Version 4 / Version 2 File size : 1.58 GiB Duration : 1 h 50 min Overall bit rate : 2 050 kb/s Movie name : Deadwood : le film Encoded date : UTC 2019-10-10 21:56:05 Writing application : mkvmerge v25.0.0 ('Prog Noir') 64-bit Writing library : libebml v1.3.6 + libmatroska v1.4.9 Video ID : 1 Format : AVC Format/Info : Advanced Video Codec Format profile : [email protected] Format settings : CABAC / 4 Ref Frames Format settings, CABAC : Yes Format settings, ReFrames : 4 frames Codec ID : V_MPEG4/ISO/AVC Duration : 1 h 50 min Bit rate : 1 600 kb/s Width : 1 280 pixels Height : 640 pixels Display aspect ratio : 2.000 Frame rate mode : Constant Frame rate : 23.976 (24000/1001) FPS Color space : YUV Chroma subsampling : 4:2:0 Bit depth : 8 bits Scan type : Progressive Bits/(Pixel*Frame) : 0.081 Stream size : 1.23 GiB (78%) Writing library : x264 core 155 r2901 7d0ff22 Encoding settings : cabac=1 / ref=1 / deblock=1:0:0 / analyse=0x3:0x113 / me=hex / subme=2 / psy=1 / psy_rd=1.00:0.00 / mixed_ref=0 / me_range=16 / chroma_me=1 / trellis=0 / 8x8dct=1 / cqm=0 / deadzone=21,11 / fast_pskip=1 / chroma_qp_offset=0 / threads=20 / lookahead_threads=5 / sliced_threads=0 / nr=0 / decimate=1 / interlaced=0 / bluray_compat=0 / constrained_intra=0 / bframes=3 / b_pyramid=2 / b_adapt=1 / b_bias=0 / direct=1 / weightb=1 / open_gop=0 / weightp=1 / keyint=240 / keyint_min=24 / scenecut=40 / intra_refresh=0 / rc_lookahead=10 / rc=2pass / mbtree=1 / bitrate=1600 / ratetol=1.0 / qcomp=0.60 / qpmin=0 / qpmax=69 / qpstep=4 / cplxblur=20.0 / qblur=0.5 / vbv_maxrate=62500 / vbv_bufsize=78125 / nal_hrd=none / filler=0 / ip_ratio=1.40 / aq=1:1.00 Default : Yes Forced : No Color range : Limited Color primaries : BT.709 Transfer characteristics : BT.709 Matrix coefficients : BT.709 Audio ID : 2 Format : AC-3 Format/Info : Audio Coding 3 Codec ID : A_AC3 Duration : 1 h 50 min Bit rate mode : Constant Bit rate : 448 kb/s Channel(s) : 6 channels Channel positions : Front: L C R, Side: L R, LFE Sampling rate : 48.0 kHz Frame rate : 31.250 FPS (1536 SPF) Bit depth : 16 bits Compression mode : Lossy Stream size : 353 MiB (22%) Title : French AC3 5.1 448kb/s Language : French Service kind : Complete Main Default : Yes Forced : No Text #1 ID : 3 Format : UTF-8 Codec ID : S_TEXT/UTF8 Codec ID/Info : UTF-8 Plain Text Duration : 3 s 587 ms Bit rate : 118 b/s Count of elements : 1 Stream size : 53.0 Bytes (0%) Title : FR Forced Language : French Default : Yes Forced : Yes Text #2 ID : 4 Format : UTF-8 Codec ID : S_TEXT/UTF8 Codec ID/Info : UTF-8 Plain Text Duration : 1 h 49 min Bit rate : 51 b/s Count of elements : 1272 Stream size : 41.3 KiB (0%) Title : FULL FR Language : French Default : No Forced : No Menu 00:00:00.000 : :Chapter 01 00:00:26.944 : :Chapter 02 00:11:09.043 : :Chapter 03 00:22:47.449 : :Chapter 04 00:32:06.633 : :Chapter 05 00:41:57.098 : :Chapter 06 00:50:17.890 : :Chapter 07 01:00:54.526 : :Chapter 08 01:11:53.059 : :Chapter 09 01:20:38.834 : :Chapter 10 01:28:02.277 : :Chapter 11 01:38:01.292 : :Chapter 12 01:45:58.769 : :Chapter 13




Qualité/Format/Langue : HDLight 720p FRENCH




Vous n'avez pas encore acheté ce film ? Rendez vous sur:

OU
La loi française vous autorise à télécharger un fichier seulement si vous en possédez l'original.
Vous n'arrivez pas à trouver un vendeur ? Faites une recherche sur Google.


Vous l'avez déjà? Passer au téléchargement




Publié : 11-10-2019, 02:22
Telecharger Deadwood : le film, Deadwood : le film DVDRIP, Deadwood : le film ZoneTelechargement ws, Deadwood : le film uptobox, Deadwood : le film 1fichier uploaded, Deadwood : le film hd720



ZoneTelechargement ws n'héberge aucun fichier. La loi française vous autorise à télécharger un fichier seulement si vous en possédez l'original. Ni ZoneTelechargement ws, ni nos hébergeurs, ni personne ne pourront êtres tenu responsables d'une mauvaise utilisation de ce site.