Zone Telechargement ws

Dernières actualités du site :

29/01 - Baishe: Yuanqi New!
03/12 - NCIS : Nouvelle-Orléans Saison 5 Episode 15 New!
29/01 - Baishe: Yuanqi New!

Catégories

Liens rapides

Filtrer par
Genres/Epoques/Pays/Notes

Année de sortie :

Action
Animation
Arts Martiaux
Aventure
Biopic
Comédie dramatique
Comédie musicale
Comédie
Divers
Documentaire
Drame
Epouvante-horreur
Espionnage
Famille
Fantastique
Guerre
Historique
Musical
Péplum
Policier
Romance
Science fiction
Thriller
Western

Membre

Annonces

Remarque


La qualité audio/vidéo de ce film est très variable, consultez cette page (cliquez ici) pour avoir les détails des différentes qualités ...
Abominable
Qualité HDLight 1080p MULTI

Abominable



Origine du film :U.S.A.
Réalisateur(s) :Jill Culton
Acteur(s) :Chloe Bennet, Albert Tsai, Tenzing Norgay Trainor
Genre :Animation,Aventure,Comédie,
Année de sortie :2019-10-23
Titre Original :Abominable
Note spectateur : - 4.2/5



Tout commence sur le toit d'un immeuble à Shanghai, avec l'improbable rencontre d'une jeune adolescente, l'intrépide Yi, avec un jeune Yeti. La jeune fille et ses amis Jin et Peng vont tenter de ramener chez lui celui qu'ils appellent désormais Everest, leur nouvel et étrange ami, afin qu'il puisse retrouver sa famille sur le toit du monde... Show/hide text Abominable.2019.MULTi.1080p.HDLight.AC3.x264-RDH.WwW.Zone-Telechargement.NET.mkv Format : Matroska Format version : Version 4 File size : 2.65 GiB Duration : 1 h 37 min Overall bit rate : 3 898 kb/s Encoded date : UTC 2019-12-08 02:36:17 Writing application : mkvmerge v29.0.0 ('Like It Or Not') 32-bit Writing library : libebml v1.3.6 + libmatroska v1.4.9 / Lavf58.29.100 Video ID : 1 Format : AVC Format/Info : Advanced Video Codec Format profile : [email protected] Format settings : CABAC / 4 Ref Frames Format settings, CABAC : Yes Format settings, ReFrames : 4 frames Codec ID : V_MPEG4/ISO/AVC Duration : 1 h 37 min Bit rate : 3 000 kb/s Width : 1 920 pixels Height : 1 038 pixels Display aspect ratio : 1.85:1 Frame rate mode : Constant Frame rate : 23.976 (24000/1001) FPS Color space : YUV Chroma subsampling : 4:2:0 Bit depth : 8 bits Scan type : Progressive Bits/(Pixel*Frame) : 0.063 Stream size : 2.04 GiB (77%) Writing library : x264 core 157 r2935 545de2f Encoding settings : cabac=1 / ref=2 / deblock=1:0:0 / analyse=0x1:0x111 / me=hex / subme=6 / psy=1 / psy_rd=1.00:0.00 / mixed_ref=1 / me_range=16 / chroma_me=1 / trellis=1 / 8x8dct=0 / cqm=0 / deadzone=21,11 / fast_pskip=1 / chroma_qp_offset=-2 / threads=32 / lookahead_threads=5 / sliced_threads=0 / nr=0 / decimate=1 / interlaced=0 / bluray_compat=0 / constrained_intra=0 / bframes=3 / b_pyramid=2 / b_adapt=1 / b_bias=0 / direct=1 / weightb=1 / open_gop=0 / weightp=1 / keyint=240 / keyint_min=24 / scenecut=40 / intra_refresh=0 / rc_lookahead=30 / rc=2pass / mbtree=1 / bitrate=3000 / ratetol=1.0 / qcomp=0.60 / qpmin=0 / qpmax=69 / qpstep=4 / cplxblur=20.0 / qblur=0.5 / vbv_maxrate=20000 / vbv_bufsize=25000 / nal_hrd=none / filler=0 / ip_ratio=1.40 / aq=1:1.00 Default : Yes Forced : No Color range : Limited Color primaries : BT.709 Transfer characteristics : BT.709 Matrix coefficients : BT.709 Audio #1 ID : 2 Format : AC-3 Format/Info : Audio Coding 3 Commercial name : Dolby Digital Codec ID : A_AC3 Duration : 1 h 37 min Bit rate mode : Constant Bit rate : 448 kb/s Channel(s) : 6 channels Channel layout : L R C LFE Ls Rs Sampling rate : 48.0 kHz Frame rate : 31.250 FPS (1536 SPF) Bit depth : 16 bits Compression mode : Lossy Delay relative to video : -5 ms Stream size : 312 MiB (11%) Language : French Service kind : Complete Main Default : Yes Forced : No Audio #2 ID : 3 Format : AC-3 Format/Info : Audio Coding 3 Commercial name : Dolby Digital Codec ID : A_AC3 Duration : 1 h 37 min Bit rate mode : Constant Bit rate : 448 kb/s Channel(s) : 6 channels Channel layout : L R C LFE Ls Rs Sampling rate : 48.0 kHz Frame rate : 31.250 FPS (1536 SPF) Bit depth : 16 bits Compression mode : Lossy Delay relative to video : -5 ms Stream size : 312 MiB (11%) Language : English Service kind : Complete Main Default : No Forced : No Text #1 ID : 4 Format : UTF-8 Codec ID : S_TEXT/UTF8 Codec ID/Info : UTF-8 Plain Text Duration : 1 h 22 min Bit rate : 0 b/s Count of elements : 8 Stream size : 180 Bytes (0%) Title : FORCED Language : French Default : Yes Forced : Yes Text #2 ID : 5 Format : UTF-8 Codec ID : S_TEXT/UTF8 Codec ID/Info : UTF-8 Plain Text Duration : 1 h 35 min Bit rate : 41 b/s Count of elements : 997 Stream size : 29.0 KiB (0%) Title : FULL Language : French Default : No Forced : No




Qualité/Format/Langue : HDLight 1080p MULTI




Vous n'avez pas encore acheté ce film ? Rendez vous sur:

OU
La loi française vous autorise à télécharger un fichier seulement si vous en possédez l'original.
Vous n'arrivez pas à trouver un vendeur ? Faites une recherche sur Google.


Vous l'avez déjà? Passer au téléchargement




Publié : 8-12-2019, 07:13
Telecharger Abominable, Abominable DVDRIP, Abominable ZoneTelechargement ws, Abominable uptobox, Abominable 1fichier uploaded, Abominable hd720



ZoneTelechargement ws n'héberge aucun fichier. La loi française vous autorise à télécharger un fichier seulement si vous en possédez l'original. Ni ZoneTelechargement ws, ni nos hébergeurs, ni personne ne pourront êtres tenu responsables d'une mauvaise utilisation de ce site.