Zone Telechargement ws

Dernières actualités du site :

29/01 - Baishe: Yuanqi New!
03/12 - NCIS : Nouvelle-Orléans Saison 5 Episode 15 New!
29/01 - Baishe: Yuanqi New!

Catégories

Liens rapides

Filtrer par
Genres/Epoques/Pays/Notes

Année de sortie :

Action
Animation
Arts Martiaux
Aventure
Biopic
Comédie dramatique
Comédie musicale
Comédie
Divers
Documentaire
Drame
Epouvante-horreur
Espionnage
Famille
Fantastique
Guerre
Historique
Musical
Péplum
Policier
Romance
Science fiction
Thriller
Western

Membre

Annonces

Remarque


La qualité audio/vidéo de ce film est très variable, consultez cette page (cliquez ici) pour avoir les détails des différentes qualités ...
Queens
Qualité HDLight 720p FRENCH

Queens



Origine du film :U.S.A.
Réalisateur(s) :Lorene Scafaria
Acteur(s) :Constance Wu, Jennifer Lopez, Julia Stiles
Genre :Biopic,Drame,
Année de sortie :2019-10-16
Titre Original :Hustlers
Note spectateur : - 2.9/5



Des stripteaseuses se lient d'amitié et décident de conjuguer leurs talents pour arnaquer et prendre leur revanche sur leurs riches clients de Wall Street. Leur plan fonctionne à merveille, mais argent et vie facile les poussent à prendre de plus en plus de risques… Show/hide text Hustlers.2019.FRENCH.720p.HDLight.AC3.x264-RDH.WwW.Zone-Telechargement.NET.mkv Format : Matroska Format version : Version 4 File size : 1.88 GiB Duration : 1 h 49 min Overall bit rate : 2 449 kb/s Encoded date : UTC 2019-12-08 06:26:34 Writing application : mkvmerge v29.0.0 ('Like It Or Not') 32-bit Writing library : libebml v1.3.6 + libmatroska v1.4.9 / Lavf58.29.100 Video ID : 1 Format : AVC Format/Info : Advanced Video Codec Format profile : [email protected] Format settings : CABAC / 4 Ref Frames Format settings, CABAC : Yes Format settings, ReFrames : 4 frames Codec ID : V_MPEG4/ISO/AVC Duration : 1 h 49 min Bit rate : 2 000 kb/s Width : 1 280 pixels Height : 536 pixels Display aspect ratio : 2.40:1 Frame rate mode : Constant Frame rate : 23.976 (24000/1001) FPS Color space : YUV Chroma subsampling : 4:2:0 Bit depth : 8 bits Scan type : Progressive Bits/(Pixel*Frame) : 0.122 Stream size : 1.54 GiB (82%) Writing library : x264 core 157 r2935 545de2f Encoding settings : cabac=1 / ref=2 / deblock=1:0:0 / analyse=0x1:0x111 / me=hex / subme=6 / psy=1 / psy_rd=1.00:0.00 / mixed_ref=1 / me_range=16 / chroma_me=1 / trellis=1 / 8x8dct=0 / cqm=0 / deadzone=21,11 / fast_pskip=1 / chroma_qp_offset=-2 / threads=17 / lookahead_threads=2 / sliced_threads=0 / nr=0 / decimate=1 / interlaced=0 / bluray_compat=0 / constrained_intra=0 / bframes=3 / b_pyramid=2 / b_adapt=1 / b_bias=0 / direct=1 / weightb=1 / open_gop=0 / weightp=1 / keyint=240 / keyint_min=24 / scenecut=40 / intra_refresh=0 / rc_lookahead=30 / rc=2pass / mbtree=1 / bitrate=2000 / ratetol=1.0 / qcomp=0.60 / qpmin=0 / qpmax=69 / qpstep=4 / cplxblur=20.0 / qblur=0.5 / vbv_maxrate=14000 / vbv_bufsize=14000 / nal_hrd=none / filler=0 / ip_ratio=1.40 / aq=1:1.00 Default : Yes Forced : No Color range : Limited Color primaries : BT.709 Transfer characteristics : BT.709 Matrix coefficients : BT.709 Audio ID : 2 Format : AC-3 Format/Info : Audio Coding 3 Commercial name : Dolby Digital Codec ID : A_AC3 Duration : 1 h 49 min Bit rate mode : Constant Bit rate : 448 kb/s Channel(s) : 6 channels Channel layout : L R C LFE Ls Rs Sampling rate : 48.0 kHz Frame rate : 31.250 FPS (1536 SPF) Bit depth : 16 bits Compression mode : Lossy Delay relative to video : -5 ms Stream size : 352 MiB (18%) Language : French Service kind : Complete Main Default : Yes Forced : No Text ID : 3 Format : UTF-8 Codec ID : S_TEXT/UTF8 Codec ID/Info : UTF-8 Plain Text Duration : 1 h 42 min Bit rate : 0 b/s Count of elements : 10 Stream size : 417 Bytes (0%) Title : FORCED Language : French Default : Yes Forced : Yes Menu 00:00:00.000 : :Chapter 1 00:05:39.965 : :Chapter 2 00:12:30.959 : :Chapter 3 00:19:49.772 : :Chapter 4 00:27:33.110 : :Chapter 5 00:34:19.140 : :Chapter 6 00:41:37.412 : :Chapter 7 00:47:56.582 : :Chapter 8 00:54:13.792 : :Chapter 9 01:01:22.262 : :Chapter 10 01:08:55.131 : :Chapter 11 01:14:39.350 : :Chapter 12 01:20:59.271 : :Chapter 13 01:27:45.886 : :Chapter 14 01:34:51.060 : :Chapter 15 01:42:35.524 : :Chapter 16




Qualité/Format/Langue : HDLight 720p FRENCH




Vous n'avez pas encore acheté ce film ? Rendez vous sur:

OU
La loi française vous autorise à télécharger un fichier seulement si vous en possédez l'original.
Vous n'arrivez pas à trouver un vendeur ? Faites une recherche sur Google.


Vous l'avez déjà? Passer au téléchargement




Publié : 8-12-2019, 10:27
Telecharger Queens, Queens DVDRIP, Queens ZoneTelechargement ws, Queens uptobox, Queens 1fichier uploaded, Queens hd720



ZoneTelechargement ws n'héberge aucun fichier. La loi française vous autorise à télécharger un fichier seulement si vous en possédez l'original. Ni ZoneTelechargement ws, ni nos hébergeurs, ni personne ne pourront êtres tenu responsables d'une mauvaise utilisation de ce site.